1182709 发表于 2014-5-14 19:25

【应求7年后重发】[98 Degrees - The Collection][度盘|APE]

专辑名称:The Collection
专辑歌手:98 degrees
发行时间:2002年
资源类型:APE
地区:美国
语言:英语


98 Degrees have always had a simple philosophy about success: persevere, work hard, have faith and eventually you'll reach your goal. For the quartet, who've sold millions of albums and earned a devoted fanbase since they arrived on the music scene in 1997, that humble way of looking at things has helpedmake them four of the hottest singing sensations in pop music.But their ultimate aspiration has always been clear-having people recognize that their talent goes beyond just their amazing harmonies.

情歌唱到令人動容、狂野舞曲讓人全身蠢蠢欲動,兼具偶像俊帥性感外型與實力派唱功的4人美聲團體98 Degrees/98度合唱團,'97年出道之後,便憑著精湛的合聲與駕馭各類型歌曲的高超技巧贏得「白色大人小孩雙拍檔」的封號;他們的招牌抒情歌曲首首成為全美成人抒情電台的最愛,播放率就如同炎炎夏日裡的溫度計水銀柱一般居高不下,而音樂錄影帶同樣支支沸騰MTV音樂電視頻道的點播排行榜。

首張同名專輯一鳴驚人的突破金唱片,'99年加盟環球音樂的專輯『98°And Rising/98度征服未來』更一舉讓全美五百萬樂迷沉醉於98度的恆溫美聲;'99年底發行的耶誕專輯『The Christmas/千禧聖誕』包含了傳統耶誕歌謠以及全新創作的應景歌曲,順利認證為白金唱片,每到耶誕佳節他們和煦溫暖的美聲必定傳遍大街小巷;千禧年祭出第三張大碟『Revelation/天降神兵』,豐饒多元的音樂元素讓98度合唱團勇奪Billboard流行專輯榜亞軍,再創雙白金佳績。

集結98度合唱團出道5年來最膾炙人口的排行金曲與2002年全新問情單曲"Why (Are We Still Friends)"的【The Collection/沸騰精選】,記錄了他們五年來耀眼的音樂成績,讓您盡情體驗最熱力四射的98度!

98 Degrees是近年来的一个十分优秀的白人R&B组合,他们凭借着出色的歌唱,吸引了许多人的注意。98度有一个简单天真的成功哲学:不屈不挠、努力、坚持信念就能达成心愿!之所以取名98度,是因为它代表人体的正常温度(华氏温度),另一方面他们也希望自己的歌能够受到大家的欢迎。
对这个自97年跃入乐坛就一路唱出多白金佳绩、赢得一大群死心塌地歌迷拥护的4人美声团而言,谦逊的用心态度果真让他们在流行乐界炙手可热。一直渴望以往被优美和声掩盖的创作才华也能获得认同。现在这些年轻人的愿望真的实现了。

这个乐队成立于1996年4月3日。一共有四个成员: Jeff Timmons(第一主音),Nick Lachey(第二主音),Drew Lachey(和音)以及Justin Jeffre(和音)。

98°的成长是曲折的,正如同其他一切音乐组合那样,都是从无名小卒到成功,而这其中,便是充满了艰辛。这个梦开始于一个警卫,他带着这个梦想来到加利福尼亚。这个警卫正是98度的创立者是Jeff Timmons。毕业后,Jeff来到了洛杉机。并开始组队。Jeff坚信如果他够努力的话,他是会成功的。他与原来的队友John一起寻找合适的队友。后来,他们找到了Nick。Nick是从Cincinnati来的,他当时正在俄亥俄州的Miami University(迈阿密大学)学习运动医药学。他在洛杉矶遇到Jeff之后,建议让他的朋友Justin Jaffre也加入这个乐队。Justin Jeffre是另外一个SCPA的参与者,当他接到Nick的邀请时,他正在Cincinnati(辛辛那提)的大学里学习历史。他曾经和Nick一起登台表演过。Drew是最后一个加入的成员。因为在Nick和Justin加入后的5、6个月,John退出了乐队组合。当时他正在纽约的一家医院里从事紧急医药技术员的工作,但他不久就答应了加入98度的邀请。当Drew加入后,一个全新的乐队诞生了,这就是现在我们所看到的98度乐队组合。



专辑曲目:
01. Invisible man
02. Because of you
03. The hardest thing
04. I do (Cherish you)
05. Why (are we still friends)
06. Thank God I found you (Mariah Carey & Joe)
07. Give me just one night (Una Noche)
08. My everything
09. The way you want me to
10. This gift
11. Was it something I didn't say
12. Never let go
13. True to your heart (Featuring Stevie Wonder)


Universal原版压制,首首动听,
Because Of You,经典演绎!

Exact Audio Copy V0.99 prebeta 3 from 28. July 2007
EAC 抓取日志文件从23. 十二月 2007, 15:18
98o / The Collection
使用驱动器 :DVDRW GO-W16M1 Adapter: 3 ID: 1
读取模式: 保护
使用精确流 : 是
废除音频缓冲 : 是
使用 C2 指针 : 否
组合读/写偏移校正       : 0
读取 Lead-In 和 Lead-Out   : 否
用静音填充抓取中丢失偏移的采样 : 是
去除首尾静音块      : 否
在 CRC 计算中使用了空样本   : 否
已用接口         : Win NT 及 2000 本地 Win32 接口
所用输出格式 : 内部 WAV 函数
样本格式: 44.100 Hz;16 Bit;立体声

被抓轨 CD 的 TOC
音轨 | 开始 | 长度 | 起始扇区 | 结尾扇区
--------------------------------------------------
   1 | 0:00.00 | 4:42.17 |   0 | 21166
   2 | 4:42.17 | 4:56.26 | 21167 | 43392
   3 | 9:38.43 | 4:34.07 | 43393 | 63949
   4 | 14:12.50 | 3:45.70 | 63950 | 80894
   5 | 17:58.45 | 4:07.38 | 80895 | 99457
   6 | 22:06.08 | 4:18.32 | 99458 | 118839
   7 | 26:24.40 | 3:25.20 | 118840 | 134234
   8 | 29:49.60 | 3:51.60 | 134235 | 151619
   9 | 33:41.45 | 3:29.70 | 151620 | 167364
   10 | 37:11.40 | 4:06.70 | 167365 | 185884
   11 | 41:18.35 | 5:12.28 | 185885 | 209312
   12 | 46:30.63 | 4:43.62 | 209313 | 230599
   13 | 51:14.50 | 4:15.03 | 230600 | 249727
   14 | 58:01.53 | 21:34.01 | 261128 | 358178

范围状态及错误
已选择范围


APE
下载地址:
http://pan.baidu.com/s/1sjpXnTN






5602870 发表于 2014-5-14 19:36

wjsok 发表于 2014-5-14 21:14

感谢分享。。

卫华 发表于 2014-5-14 22:33

谢谢分享!

1182709 发表于 2014-5-15 19:28

每日一顶!~

redgt 发表于 2014-5-15 20:21

支持~

1182709 发表于 2014-6-27 20:00

小顶!~

刘畅兰博 发表于 2014-6-28 22:07

感谢楼主分享!

zkhlmm 发表于 2014-7-8 13:33

982290999 发表于 2014-7-14 06:45

初中时候听过 十几年了

阿拉平平 发表于 2014-7-14 11:49

下歌不回贴,不如卖红薯

liyong007 发表于 2014-8-26 21:57

期待一下,顶起。

116519599 发表于 2014-8-26 22:43

期待,支持

liyong007 发表于 2014-11-16 11:29

谢谢分享

sin70 发表于 2014-12-15 22:55

十几年前的了,那时候还上初一

liyong007 发表于 2015-9-18 11:23

感谢分享

ronjack 发表于 2015-9-18 14:52

感谢分享

wenlss 发表于 2015-9-19 12:17

谢谢分享!

mutex 发表于 2015-10-21 15:48

这个好,高中的时候,第一张打眼盘,就是买的98度呢

1182709 发表于 2015-11-18 01:48

回 18楼(mutex) 的帖子

这张也是初中时候买的打口碟哈哈!
页: [1] 2
查看完整版本: 【应求7年后重发】[98 Degrees - The Collection][度盘|APE]