找回密码
 注册
楼主: kenny365

【原创】 邓丽君15周年 1:1黄金母盘直刻 终极音效 限量版-WAV分轨(正版亲抓)

[复制链接]
发表于 2011-10-29 10:23 | 显示全部楼层
这个一定要顶的,声音很不错
回复

使用道具 举报

发表于 2011-10-29 14:19 | 显示全部楼层
楼主你好,想提出点点问题,就是每首歌的结尾之后,都包含了1秒下首歌的开头部分,听的时候,如果不是每首歌连住听,就会少了前面的1秒了。应该是分轨时切割的问题吧?如果有整轨就更好了 [s:2] [s:52]
回复

使用道具 举报

发表于 2011-10-30 00:20 | 显示全部楼层
昨天就下了今天是来顶帖的[s:2]
回复

使用道具 举报

发表于 2011-10-30 17:40 | 显示全部楼层
这个 怎么能不顶
多谢楼主分享啊
回复

使用道具 举报

发表于 2011-10-31 12:33 | 显示全部楼层
感谢分享。下载中
回复

使用道具 举报

发表于 2011-10-31 15:47 | 显示全部楼层
这么好的版本,还没有见过,非常感谢。
回复

使用道具 举报

发表于 2011-10-31 17:39 | 显示全部楼层
楼主限量亲爪,分享精神值得学习 [s:2]
回复

使用道具 举报

发表于 2011-10-31 19:44 | 显示全部楼层
支持,好久没来了
回复

使用道具 举报

发表于 2011-10-31 23:50 | 显示全部楼层
这么好的资源一定要支持下
回复

使用道具 举报

发表于 2011-11-1 02:15 | 显示全部楼层
非常感谢
回复

使用道具 举报

发表于 2011-11-1 16:58 | 显示全部楼层
感谢楼主分享,不过爆发抓轨,无偏移校正可惜了。
回复

使用道具 举报

发表于 2011-11-2 09:01 | 显示全部楼层
谢谢分享
回复

使用道具 举报

发表于 2011-11-2 13:12 | 显示全部楼层
谢楼主了!!
回复

使用道具 举报

发表于 2011-11-4 09:40 | 显示全部楼层
贴个cue上来,合并成 鄧麗君15週年.wav 后使用:


PERFORMER "鄧麗君"
TITLE "鄧麗君15週年 原音母版1:1直刻"
FILE "鄧麗君15週年.wav" WAVE
TRACK 01 AUDIO
  TITLE "漫步人生路"
  INDEX 01 00:00:00
TRACK 02 AUDIO
  TITLE "何日君再來"
  INDEX 00 03:35:47
  INDEX 01 03:44:47
TRACK 03 AUDIO
  TITLE "甜蜜蜜"
  INDEX 00 06:23:22
  INDEX 01 06:42:22
TRACK 04 AUDIO
  TITLE "在水一方"
  INDEX 00 10:09:14
  INDEX 01 10:13:15
TRACK 05 AUDIO
  TITLE "忘記他"
  INDEX 00 13:55:39
  INDEX 01 13:59:40
TRACK 06 AUDIO
  TITLE "你可知道我愛誰"
  INDEX 00 16:51:57
  INDEX 01 16:56:57
TRACK 07 AUDIO
  TITLE "小城故事"
  INDEX 00 20:09:64
  INDEX 01 20:18:65
TRACK 08 AUDIO
  TITLE "我和你"
  INDEX 00 22:51:72
  INDEX 01 22:59:72
TRACK 09 AUDIO
  TITLE "再見!我的愛人"
  INDEX 00 26:51:32
  INDEX 01 26:55:32
TRACK 10 AUDIO
  TITLE "東山飄雨西山晴"
  INDEX 00 30:20:24
  INDEX 01 30:26:25
TRACK 11 AUDIO
  TITLE "你怎麼說"
  INDEX 00 33:34:52
  INDEX 01 33:37:52
TRACK 12 AUDIO
  TITLE "海韻"
  INDEX 00 36:57:09
  INDEX 01 37:04:10
TRACK 13 AUDIO
  TITLE "原鄕情濃"
  INDEX 00 40:15:29
  INDEX 01 40:20:30
TRACK 14 AUDIO
  TITLE "水上人"
  INDEX 00 43:35:32
  INDEX 01 43:40:32
TRACK 15 AUDIO
  TITLE "月亮代表我的心"
  INDEX 00 46:41:09
  INDEX 01 46:52:10
回复

使用道具 举报

发表于 2011-11-4 21:17 | 显示全部楼层
[s:5] [s:5] 纯帮顶了
如果lz重新抓 肯定能火
回复

使用道具 举报

发表于 2011-11-7 04:50 | 显示全部楼层
我去,之前入了一个什么金碟版现在又直刻版。。。那母盘都多少年了。。。
回复

使用道具 举报

发表于 2011-11-7 23:18 | 显示全部楼层
邓丽君15周年母带1:1复刻.wav.zip

这个真的要顶了,
回复

使用道具 举报

发表于 2011-11-8 13:46 | 显示全部楼层
唯一的不足是没有命名歌曲
回复

使用道具 举报

发表于 2011-11-8 18:09 | 显示全部楼层
顶一个 [s:2]
回复

使用道具 举报

发表于 2011-11-9 16:53 | 显示全部楼层
[s:10] [s:10] 必须 顶
回复

使用道具 举报

您需要登录后才可以回帖 登录 | 注册

本版积分规则

Archiver|手机版|《中华人民共和国增值电信业务经营许可证》粤B2-20120704|耳机大家坛-耳机网 ( 粤icp备09046054号-6 )

粤公网安备 44030602000598号

GMT+8, 2017-10-22 01:47

Powered by Discuz! X3.2

© 2001-2013 Comsenz Inc.

快速回复 返回顶部 返回列表