找回密码
 注册
查看: 21048|回复: 88

蔡琴《试音蔡琴 Hi-Fi顶级人声天碟》[WAV/整轨][115]

[复制链接]
发表于 2012-3-13 10:36 | 显示全部楼层 |阅读模式
简介:
Hi-Fi顶级人声天碟

精选12首蔡琴录音最佳、演唱最佳的wav音乐

精选来自wav音乐下载区的超级原版一手母带12首超靓录音歌曲、发烧友必备人声试音典范之作,测试高级音响体系的神兵利器。

专辑曲目:
01.渡口 选自原版母带(民歌蔡琴)XRCD 2版本
02.我有一段情 选自原版母带(蔡琴:金片子)XRCD 24版本
03.被遗忘的时光 选自原版母带(民歌蔡琴)XRCD 2版本
04.月光小夜曲 选自原版母带(蔡琴:机遇)XRCD2 版本
05.机遇 选自原版母带(蔡琴:机遇)XRCD2版本
06.三年 选自原版母带(蔡琴:老歌)XRCD2版本
07.六月茉莉 选自原版母带(蔡琴:机遇)XRCD2版本
08.把悲伤留给自己 选自原版母带(蔡琴:遇见)XRCD24版本
09.痴痴的等 选自原母带(蔡琴:老歌)XRCD2版本
10.缺口 选自原版母带(蔡琴:遇见)XRCD 24版本
11.恰似你的温柔 选自原版母带(民歌蔡琴)XRCD2版本
12.你的眼神 选自原版母带(民歌蔡琴)XRCD2版本

下载地址一
下载地址二
发表于 2012-3-18 09:43 | 显示全部楼层
顶一个
回复

使用道具 举报

发表于 2012-3-19 05:41 | 显示全部楼层
[s:2] 顶~~~
回复

使用道具 举报

发表于 2012-3-19 10:16 | 显示全部楼层
鄙视这样发资源的,连接了第二个还需要注册才能下载的网站,不是直接115!在卖广告?
回复

使用道具 举报

发表于 2012-3-20 07:35 | 显示全部楼层
终于注册好了,大家直接下吧


http://115.com/file/dpqul6n4
回复

使用道具 举报

发表于 2012-3-20 08:27 | 显示全部楼层
有两首没听过,听听去,谢谢
回复

使用道具 举报

发表于 2012-3-20 10:47 | 显示全部楼层
喜欢听邓丽君的歌!支持楼主!
回复

使用道具 举报

 楼主| 发表于 2012-3-20 15:08 | 显示全部楼层
引用第3楼blanca于2012-03-19 10:16发表的 :
鄙视这样发资源的,连接了第二个还需要注册才能下载的网站,不是直接115!在卖广告?


我只是尊重人家的劳动成果,如果你嫌麻烦那你就别下了~~没强迫你下!!
回复

使用道具 举报

发表于 2012-3-24 20:42 | 显示全部楼层
Ultimate Ears 700
回复

使用道具 举报

发表于 2012-3-24 23:19 | 显示全部楼层
经典啊。 [s:10]
回复

使用道具 举报

发表于 2012-3-26 20:50 | 显示全部楼层
支持,东西很好。
回复

使用道具 举报

发表于 2012-3-27 19:13 | 显示全部楼层
下了,这张碟真的好!
回复

使用道具 举报

发表于 2012-3-28 18:09 | 显示全部楼层
引用第4楼grrr_pt于2012-03-20 07:35发表的 :
终于注册好了,大家直接下吧


http://115.com/file/dpqul6n4
谢了,注册真麻烦
回复

使用道具 举报

发表于 2012-3-29 01:46 | 显示全部楼层
谢了 顶起
[s:52]
回复

使用道具 举报

发表于 2012-3-29 18:10 | 显示全部楼层
引用第4楼grrr_pt于2012-03-20 07:35发表的 :
终于注册好了,大家直接下吧


http://115.com/file/dpqul6n4

谢谢你
回复

使用道具 举报

发表于 2012-4-3 20:09 | 显示全部楼层
谢谢分享!!!
回复

使用道具 举报

发表于 2012-4-17 22:12 | 显示全部楼层
谢谢分享!!! [s:41]
回复

使用道具 举报

发表于 2012-4-18 01:47 | 显示全部楼层
REM DISCID 9C0BBF0C
REM COMMENT ExactAudioCopy v1.0b3
TITLE "试音蔡琴 Hi-Fi顶级人声天碟"
FILE "试音蔡琴.wav" WAVE
TRACK 01 AUDIO
  TITLE "渡口"
  PERFORMER "蔡琴"
  FLAGS DCP
  INDEX 01 00:00:00
TRACK 02 AUDIO
  TITLE "我有一段情"
  PERFORMER "蔡琴"
  FLAGS DCP
  INDEX 01 03:47:25
TRACK 03 AUDIO
  TITLE "被遗忘的时光"
  PERFORMER "蔡琴"
  FLAGS DCP
  INDEX 01 08:26:30
TRACK 04 AUDIO
  TITLE "月光小夜曲"
  PERFORMER "蔡琴"
  FLAGS DCP
  INDEX 01 11:11:55
TRACK 05 AUDIO
  TITLE "机遇"
  PERFORMER "蔡琴"
  FLAGS DCP
  INDEX 01 15:11:22
TRACK 06 AUDIO
  TITLE "三年"
  PERFORMER "蔡琴"
  FLAGS DCP
  INDEX 01 19:21:72
TRACK 07 AUDIO
  TITLE ".六月茉莉"
  PERFORMER "蔡琴"
  FLAGS DCP
  INDEX 01 23:10:72
TRACK 08 AUDIO
  TITLE "把悲伤留给自己"
  PERFORMER "蔡琴"
  FLAGS DCP
  INDEX 01 26:23:74
TRACK 09 AUDIO
  TITLE "痴痴的等"
  PERFORMER "蔡琴"
  FLAGS DCP
  INDEX 01 31:48:49
TRACK 10 AUDIO
  TITLE "缺口"
  PERFORMER "蔡琴"
  FLAGS DCP
  INDEX 01 36:53:49
TRACK 11 AUDIO
  TITLE "恰似你的温柔"
  PERFORMER "蔡琴"
  FLAGS DCP
  INDEX 01 41:41:29
TRACK 12 AUDIO
  TITLE "你的眼神"
  PERFORMER "蔡琴"
  FLAGS DCP
  INDEX 01 45:57:29
回复

使用道具 举报

发表于 2012-4-18 18:34 | 显示全部楼层
引用第4楼grrr_pt于2012-03-20 07:35发表的 :
终于注册好了,大家直接下吧


http://115.com/file/dpqul6n4






喝水不忘挖井人!!!


谢谢!
回复

使用道具 举报

发表于 2012-4-26 14:58 | 显示全部楼层
引用第4楼grrr_pt于2012-03-20 07:35发表的 :
终于注册好了,大家直接下吧


http://115.com/file/dpqul6n4


纯感谢~~~
回复

使用道具 举报

您需要登录后才可以回帖 登录 | 注册

本版积分规则

Archiver|手机版|《中华人民共和国增值电信业务经营许可证》粤B2-20120704|耳机大家坛-耳机网 ( 粤icp备09046054号-6 )

粤公网安备 44030602000598号

GMT+8, 2018-7-22 01:43

Powered by Discuz! X3.2

© 2001-2013 Comsenz Inc.

快速回复 返回顶部 返回列表