找回密码
 注册
楼主: jimguo

资源:达尼音响顶级录音试音碟 (3cd)

[复制链接]
 楼主| 发表于 2017-7-9 00:34 | 显示全部楼层
本帖最后由 jimguo 于 2017-7-9 00:40 编辑

经典试音碟
《至尊小提琴试音天碟》莱昂尼达斯·卡瓦科斯 Leonidas Kavakos [WAV]

专辑名称:至尊小提琴试音天碟
专辑演奏:Leonidas Kavakos (莱昂尼达斯·卡瓦科斯)
出版时间:2007
专辑出品:天乐唱片
CD 编号:TM-SACD80052
https://pan.baidu.com/s/1bCUVD0#list/path=%2F


◆◆专辑简介◆◆
这款由天乐唱片为ACCUSTIC ARTS音响定制的SACD唱片,由希腊小提琴家Leonidas Kavakos莱昂尼达斯·卡瓦科斯演奏12首精彩小提琴曲,他被喻为本世纪继海菲兹之后最有大师风范之新秀。录制这张唱片时他所用的小提琴是一代宗师帕格尼尼生前用过的1742年Guarneri del Gesu名琴。
这张小提琴专辑的原版录音是美国Delos公司1991年在洛杉叽的一间大教堂进行的,收录了柴可夫斯基的《旋律》、舒伯特的《L’Abeille》、巴齐尼的《小精灵舞曲》,还有克莱斯勒的《爱之欢乐》、《爱之悲伤》和恩斯特的《夏日玫瑰主题变奏曲》等12首乐曲,都是小提琴曲目中的精品之精品。

TM重新将母带重新经过DSD技术制版,它除保持有原来通透明朗的音质之外,小提琴和钢琴的质感和解像、线条感都有长足的进步,CD层同时采用了SADIE技术处理,使各种技术指标达到一级水平,录音本身就已经很有水准,再经过加工,使得小提琴的音场和定位更加精确,弦声质感更强,音响效果定能满足发烧乐迷的要求。
Leonidas Kavakos的小提琴演奏技艺炉火纯青,配合古典名琴的醇厚音色,让这张唱片的小提琴音色光辉、醇厚、密度高、细节丰富。专辑中曲目大都是炫技类的,很能考验演奏者的水平,Leonidas Kavakos很好得把握了一切,显得从容不迫,琴弦之音是清丽脱俗,纤细明亮,延绵不断,纯结无暇,可谓达到完美境界。
其中那种有条不紊的小提琴快弓更是一绝!每个录音全程如同行云流水,还散发出阵阵淡淡的松香味,背景的钢琴声清脆,恰到好处;弹奏五弦琴的声音是充满质感的,很多细节都轻而易见。此碟用一流的乐器,加一流的演奏,再配以一流的录音精制而成。听过这张CD后,最直接的感觉是技巧高超,靓声至极!




回复

使用道具 举报

发表于 2017-7-9 03:13 | 显示全部楼层
jimguo 发表于 2017-7-8 22:43
补上了,不好意思

谢谢。
回复

使用道具 举报

 楼主| 发表于 2017-7-9 22:05 | 显示全部楼层
本帖最后由 jimguo 于 2017-7-9 22:15 编辑

德国人声碟皇卡-洛塔多重唱现场直录 (24K金 Audiophile版)
Friends Of Carlotta - Live In Studio [JVC XRCD] [WV]
B & W 专属测试片

歌手: Friends of Carlotta
版本: [Zounds Gold + XRCD2]
发行: 2006年10月30日
地区: 德国
语言: 英语
https://pan.baidu.com/share/link?shareid=3917763905&uk=3193863223#list/path=%2F


发烧音响 (aug 2004) 主笔: 中仔

听闻这张碟原本是LP,还是限量印制。从未听过,但当听完这同一录音的CD版本后,我发誓要非找到这张LP不可!
从再版的CD中所听到的是丰富到无伦的录音室残响,在家中聆听室欣赏,令我感觉是置身于录音现场一样。相信以后称赞任何录音够“Live”,都要先听一听这张。
资料显示此CD是由原装母带混音翻制,水准之高是近日罕有的。加上采用Direct-to-Disc方式灌录,发烧程度不言而喻。全碟只得八首歌曲,但首首皆为听出耳油之作。播得最多是男声主唱的《how deep is your love》和女声主唱的《hello》。德国六人乐队Friends of Carlotta之演出简直就是精彩绝伦。尤其人声歌唱部份,更有绕梁三日之妙。近日我不断的向朋友介绍此碟,说不单是录音靓,选曲精,一流的演绎更令人震惊!乐队的而且确有能力今这批常青的歌曲演出得生动有致。


卡洛塔五重唱

老虎鱼唱片录制,Zound老板亲采CEDAR高滤波混音系统.音效更胜xrcd,发烧碟中至尊王牌. 重唱欧美畅销名曲,真情推荐。
AUDIOPHILE EDITION Vol.7 FRIENDS OF CARLOTTA LIVE IN STUDIO 卡洛塔与五重唱在录音室
专发hi-end级音乐软体的德国zounds唱片公司
zounds这个德国音响发烧界算是教主级的唱片公司,以重刻重选重发经典专辑闻名。

以Christiane Eiben的唱歌为骨干的六人组合,他们实是老拍挡,从每位成员的嗓子到他们演奏的乐器运用也直觉地了解清楚。因此倾听本碟有十分和谐与合拍感。本碟使用Direct-to-Disc From Mastertape的全新科技,有减因电脑辅助制作音乐下产生歌曲与歌曲间的音频错误。本碟为近期多个杂志举行的音乐示范会选择为必须播放天碟。

Live in Studio是一张非常与别不同的人声多重唱的珍藏作品;自1999年原版推出时,全球只发行 2000张。而当时有幸可拥有及欣赏到这张发烧专辑人屈指可数,导至很多向隅此张专辑的爱乐者不断四出搜寻这张珍贵专辑。今天,德国著名发烧音响品牌Clearaudio特别为这队Friens of Carlotta组合签订全球性合约,为他们发表这张令发烧乐迷引颈期待之完美作品。Clearaudio更引用了全新制碟模式‘原版直刻技术’ DIRECT-TO-DISC From Master Tape直接把原始母带的音源直接印录在 CD当中,将原有的音色讯号一点一滴完全稳定锁进CD里。这专辑在过去数年间在世界各地不同的高科技音蜜展览会上均被用作各种器材的示范软件,此碟不但录音出众,加上众演唱或演奏家的超凡演绎,再一次确定了一张真正成功的发烧录音软件,必需具备高科技及高水准演绎下不可划缺的元素。然而今天在少数杰出的制作人当中,有能力可以平衡科技与完美艺术之间可共存之威,而今天电脑辅助音乐所制成品之最终问题是歌曲与歌曲之间前半拍的断层现像,而‘原版直刻技术’ DIRECT-TO-DISC From Master Tape这还原技术可解决这讯号遗失的问题亦可迎刃而解。

‘Friens of Carlotta’以Christian Eiben女声为首之靓声组合,他们不单是合作无间的配搭组合,也是各自拥有个人风格之老拍档;虽然爵士(Jazz)和蓝调(Blues)是他们演绎最多和阅历至深之音乐种类,但当他们遇到他们喜爱的作品时,他们亦尽情一试,因此这张集合八首非常流行歌曲的小品专集 "Live in Studio"亦随之应运而生。就因为这六位老拍档合作已久关系,直觉地大家亦明白了解到各自有自我的长处,但更清楚到亦需要互相弥补彼此不足之处,包括声调与乐器之间的互相运用,令彼此配合无间,所以他们在本专辑中表现得很和谐及协调,不同的人声与乐器之间的层次空间感,录音宽阔、人声质感浓烈;这种曲风与一些老牌歌手重唱经典作品又是另一回事,无论是腔调、情感、语音和各音节之间的表现均被他人翻唱来得更加有张力和更具感染力。

1. How Deep Is Your Love
2. Hello
3. Nothing Ever Happens
4. Fever
5. In The Air Tonight
6. Ain't No Sunshine
7. Walkin' In Memphis
8. Time After Time


回复

使用道具 举报

 楼主| 发表于 2017-7-14 13:04 | 显示全部楼层



《黑教堂》

CANTATE_DOMINO《黑教堂》(瑞典版) SACD-ISO-DFF.rar
https://pan.baidu.com/share/link?shareid=626418367&uk=235668520&fid=406235399754944


Proprius - CANTATE DOMINO《黑教堂》(瑞典版) - SACD-ISO
https://pan.baidu.com/share/link?shareid=894283230&uk=203634154#list/path=%2F

回复

使用道具 举报

发表于 2017-7-20 21:24 | 显示全部楼层
hahahah
回复

使用道具 举报

 楼主| 发表于 2017-7-22 05:23 | 显示全部楼层


Chesky 大耳朵测试天尊 (母带版)

http://www.panduoduo.net/r/30062363



回复

使用道具 举报

发表于 2017-7-25 18:12 | 显示全部楼层
...................
回复

使用道具 举报

 楼主| 发表于 2017-7-26 21:10 | 显示全部楼层
本帖最后由 jimguo 于 2017-7-29 00:36 编辑



原厂数码母带/测试类

https://pan.baidu.com/share/link?shareid=2766112642&uk=4178569766#list/path=%2F

中央人民广播电台开盘播出带/16bit/96khz/WEB
The Ultimate Demonstration Disc Vol.2/24bit/96khz/hdtracks
The Super Audio Surround Collection Volume 3/24bit/96khz/linn
The Super Audio Collection Volume 6/24bit/192khz/linn
The Super Audio Collection Volume 5/24bit/96khz/linn
Just Music Exclusive Linn Compilation/24bit/44.1khz/linn
Head Fi & HDtracks - Open Your Ears/24bit/96khz/hdtracks
HDtracks 96-24 Ultimate Download Experience/24bit/96khz/hdtracks
HDtracks 2013 Sampler/24bit/96khz/hdtracks
DXD tracks Sampler/24bit/352.8khz/2L
Dr. Chesky's Sensational, Fantastic, and Simply Amazing Binaural Sound Show/24bit/96khz/hdtarcks
Accademia Bizantina dir. Ottavio Dantone - Violin Sonatas Op. 5/24bit/96khz/linn
32bit-192khz数码母带/32bit/192khz/WEB
2L官方服务器原装数码母带测试音乐/多规格
2L - Nordic Sound HiRes Sampler/24bit/352.8khz/2L
回复

使用道具 举报

 楼主| 发表于 2017-7-31 22:24 | 显示全部楼层
本帖最后由 jimguo 于 2017-7-31 23:32 编辑

中央人民广播电台开盘播出带/16bit/96khz/WEB
01 春风吻上我的脸(蔡琴).wav
02 总有一天等到你(蔡琴).wav
03 读你千遍也不厌倦(蔡琴).wav
04 寒雨曲(蔡琴).wav
05 重归苏莲托(蔡琴).wav
06 二泉映月(二胡曲).wav
07 江河水(二胡曲).wav
08 豫北叙事曲(二胡曲).wav

这个下载完听了一下,确实比网传的那些各种规格的蔡琴录音好听。可能是经过专业滤波转录的母带。并不是那种惊艳,而是很均衡的美感。
以前从不爱听蔡琴,感觉风格是那种书卷业余气比较重的类型,不伦不类。但这次的录音,不说风格,只听乐感均衡度就很有魅力。抹平了蔡琴的风格问题。

带播音员解说引导,听上去感觉很舒适。比单独自己播录音听好多了,可能是高端服务效果和自我服务的美感差距比较大吧。但解说录音麦的音质不太好,不如蔡琴歌曲录音。不过可能因为播出接收终端也听不出来,也就将就了。省成本。
不过,这样的音质实在不错。但愿有一天能听到高码率的数字广播。收费也行。

要不超级牛的音响器材,还是瑞士广播器材FM的高端。




回复

使用道具 举报

 楼主| 发表于 2017-8-21 12:16 | 显示全部楼层


母带试音碟

32bit192khz数码母带 32bit超级试音No.1 wav
https://pan.baidu.com/share/link?shareid=1932404013&uk=3712792985#list/path=%2F

[24bit数码母带音乐15] - 试音 多声道系列
https://pan.baidu.com/share/link?shareid=2079682998&uk=3712792985#list/path=%2F
[24bit数码母带音乐] - 试音碟 01
[24bit数码母带音乐] - 试音碟 02
[SACD&LP转轨的24bit音频] - 试音碟
[SACD&LP转轨的24bit音频] - 多声道




回复

使用道具 举报

 楼主| 发表于 2017-8-24 23:01 | 显示全部楼层
本帖最后由 jimguo 于 2017-8-27 21:27 编辑

EMI 古典皇牌监听天碟 Ultimate Masters Sound [2CDs]


https://pan.baidu.com/share/link?shareid=2818999129&uk=1937817398#list/path=%2F

出品:EMI

发行:2013,环球

介质:2CD

条码:5099997880523


最伟大的演奏家 最精彩的演绎 最细腻的音效处理
2CD 收录32首选辑于EMI Masters系列 多款专辑的动人曲目

DISC 1
01 Beethoven: Violin Sonata No.8 in G Op.30 No.3 - I.
贝多芬:G大调第八号小提琴奏鸣曲 作品三十第一乐章
02 Mozart: Rondo for piano and orchestra in D K382
莫扎特:D大调钢琴与管弦乐团回旋曲K382
03 Debussy: L’Enfant prodigue-Cortège et air de danse
德彪西:浪子
04 Chopin: Nocturnes No.1 in B flat minor Op.9 No.1
肖邦:降B大调第一号夜曲 作品九
05 Mozart: Flute Concerto No.2 in D K314, III.Rondeau:Allegro
莫扎特:D大调第二号小号协奏曲K314 第三乐章
06 Liszt: Hungarian Rhapsodies S224 No.8 in F sharp minor 'Capriccio'
李斯特:匈牙利狂想曲升F小调第八号“恶作剧”S224
07 Ralph Vaughan Williams: Fantasia on 'Greensleeves'
佛汉威廉士:绿袖子幻想曲
08 Orff: Carmina Burana–Blanziflor et Helena, XXIV:Ave formosissimo
卡尔奥尔夫:博伊伦之歌(布兰诗歌) 白兰琪芙蓉和海伦娜 二十四:诗歌
09 Orff:Carmina Burana-Blanziflor et Helena, XXIV:O Fortuna
卡尔奥尔夫:博伊伦之歌(布兰诗歌) 白兰琪芙蓉和海伦娜 二十五:噢 命运女神
10 Bach: Mass in B minor BWV232, II.Gloria Chorus:Gratias agunus tibi
巴赫:B小调弥撒 第二乐章:荣耀经-凯莱
11 Haydn: Cello Concerto No.1 in C Hob:I, III.Allegro molto
海顿:C大调第一号大提琴协奏曲
12 Wagner: Lohengrin Prelude (Act.III)
华格纳:罗恩格林:序(第三幕)
13 Brahms: Ein deutsches Requiem Op.45 Wie lieblich sind deine Wohnungen
勃拉姆斯:德意志安魂曲 作品四十五 第四乐章
14 Saint-Saens: Symphony in A, III Scherzo:Vivace
圣桑:A大调交响曲 第三乐章
15 Hummel: Trumpet Concerto in E flat(ed Oubradous), III.Rondo:Allegro molto
胡麦尔:降E大调小号协奏曲 第三乐章
16 Mozart: Requiem in D minor K626 Lacrimosa
莫扎特:D小调安魂曲 K626:垂泪之日

DISC 2
01 Grieg: Symphonic Dance Op.64 No.2
格里格:第二号 交响舞曲 作品六十四
02 Beethoven: Piano Sonata No.8 in C minor Op.13 'Pathetique'
贝多芬:C小调第八号 钢琴奏鸣曲“悲怆”,作品十三 第三乐章
03 Leopold Mozart: Trumpet Concerto in D (ed.Seiffert), II.Allegro moderato
雷奥普:莫扎特D大调小号协奏曲 第二乐章
04 Mendelssohn: Violin Concerto in E Minor Op.64, III.Allegretto non-troppo-Allegro molto vivace
门德尔松:E小调小提琴协奏曲 第三乐章
05 Beethoven: Symphony No.5 in C minor Op.67, III.Allegro(excerpt)
贝多芬:C小调第五号交响曲 作品六十七 第三乐章(选段)
06 Verdi: Messa da Requiem, II.Sequence(Dies irae)Rex Tremendae
威尔第:安魂弥撒 第二乐章
07 Mahler: Symphony No.9 in D, I.Andante comodo(excerpt)
马勒:D大调第九号交响曲 第一乐章(选段)
08 Delibes: Le Roi s’amuse - Incidental Music(Ballet Music), I.Gaillarde
德里布:“国王取乐”第一乐章
09 Schubert: Lieder Auf dem Wasser zu singen D.774
舒伯特:艺术歌曲--在水上歌唱 D774
10 Elgar: Serenade in E minor Op.20, I.Allegro piacevole
埃尔加:E小调小夜曲 第一乐章
11 Bach: Partita No.3 in E BW V 1006, I.Preludio
巴赫:E大调无伴奏第三号小提琴组曲
12 Richard Strauss: Ein Heldenleben Op.40 Thema der Siegewi Bheit
理查施特劳斯:英雄的生涯 作品四十
13 Berlioz: Les Troyens Trojan March (Act.I)
柏辽兹:特洛伊人-木马进行曲(第一章)
14 Rachmaninov: Rhapsody on a Theme of Paganini Variation, XVI:Allegretto
拉赫马尼诺夫:帕格尼主题狂想曲 第十六变奏
15 Rachmaninov: Rhapsody on a Theme of Paganini Variation, XVII
拉赫马尼诺夫:帕格尼主题狂想曲 第十七变奏
16 Rachmaninov: Rhapsody on a Theme of Paganini Variation, XVIII:Andante cantabile
拉赫马尼诺夫:帕格尼主题狂想曲 第十八变奏




回复

使用道具 举报

 楼主| 发表于 2017-8-26 21:01 | 显示全部楼层
本帖最后由 jimguo 于 2017-8-27 21:41 编辑

EMI 古典皇牌监听天碟 Ultimate Masters Sound 2013 [2CD]
播放目录文件(补打注释)

CDImage1.cue

REM DATE 2013
REM DISCID E7114610
REM COMMENT ExactAudioCopy v0.99pb5
TITLE "Ultimate Masters Sound CD1 "
FILE "CDImage1.flac" WAVE
  TRACK 01 AUDIO
    TITLE "Beethoven: Violin Sonata No.8 in G Op.30 No.3 - i."
    PERFORMER "贝多芬:G大调第八号小提琴奏鸣曲 作品三十第一乐章"
    FLAGS DCP
    INDEX 01 00:00:00
  TRACK 02 AUDIO
    TITLE "Mozart: Rondo for piano and orchestra in D K382"
    PERFORMER "莫扎特:D大调钢琴与管弦乐团回旋曲K382"
    FLAGS DCP
    INDEX 01 06:34:00
  TRACK 03 AUDIO
    TITLE "Debussy: L’Enfant prodigue-Cortège et air de danse"
    PERFORMER "德彪西:浪子"
    FLAGS DCP
    INDEX 01 14:24:00
  TRACK 04 AUDIO
    TITLE "Chopin: Nocturnes No.1 in B flat minor Op.9 No.1"
    PERFORMER "肖邦:降B大调第一号夜曲 作品九"
    FLAGS DCP
    INDEX 01 18:46:00
  TRACK 05 AUDIO
    TITLE "Mozart: Flute Concerto No.2 in D K314 III.Rondeau:Allegro"
    PERFORMER "莫扎特:D大调第二号小号协奏曲K314 第三乐章"
    FLAGS DCP
    INDEX 01 24:02:00
  TRACK 06 AUDIO
    TITLE "Liszt: Hungarian Rhapsodies S224 No.8 in F sharp minor 'Capriccio'"
    PERFORMER "李斯特:匈牙利狂想曲升F小调第八号“恶作剧”S.224"
    FLAGS DCP
    INDEX 01 29:24:00
  TRACK 07 AUDIO
    TITLE "Ralph Vaughan Williams: Fantasia on 'Greensleeves'"
    PERFORMER "佛汉威廉士:绿袖子幻想曲"
    FLAGS DCP
    INDEX 01 35:09:00
  TRACK 08 AUDIO
    TITLE "Orff: Carmina Burana–Blanziflor et Helena XXIV:Ave formosissimo"
    PERFORMER "奥尔夫:博伊伦之歌 (布兰诗歌) 白兰琪芙蓉和海伦娜 二十四:诗歌"
    FLAGS DCP
    INDEX 01 39:52:00
  TRACK 09 AUDIO
    TITLE "Orff:Carmina Burana-Blanziflor et Helena XXIV:O Fortuna"
    PERFORMER "奥尔夫:博伊伦之歌 (布兰诗歌) 白兰琪芙蓉和海伦娜 二十五:噢 命运女神"
    FLAGS DCP
    INDEX 01 41:51:57
  TRACK 10 AUDIO
    TITLE "Bach: Mass in B minor BWV232, II.Gloria Chorus:Gratias agunus tibi"
    PERFORMER "巴赫:B小调弥撒 第二乐章:荣耀经-凯莱 "
    FLAGS DCP
    INDEX 01 44:41:61
  TRACK 11 AUDIO
    TITLE "Haydn: Cello Concerto No.1 in C Hob:I, III.Allegro molto"
    PERFORMER "海顿:C大调第一号大提琴协奏曲"
    FLAGS DCP
    INDEX 01 48:01:61
  TRACK 12 AUDIO
    TITLE "Wagner: Lohengrin Prelude (Act.III)"
    PERFORMER "华格纳:罗恩格林:序(第三幕)"
    FLAGS DCP
    INDEX 01 54:28:61
  TRACK 13 AUDIO
    TITLE "Brahms: Ein deutsches Requiem Op.45 Wie lieblich sind deine Wohnungen"
    PERFORMER "勃拉姆斯:德意志安魂曲 作品四十五 第四乐章"
    FLAGS DCP
    INDEX 01 57:33:61
  TRACK 14 AUDIO
    TITLE "Saint-Saens: Symphony in A, III Scherzo:Vivace"
    PERFORMER "圣桑:A大调交响曲 第三乐章"
    FLAGS DCP
    INDEX 01 63:21:61
  TRACK 15 AUDIO
    TITLE "Hummel: Trumpet Concerto in E flat(ed Oubradous), III.Rondo:Allegro molto"
    PERFORMER "胡麦尔:降E大调小号协奏曲 第三乐章"
    FLAGS DCP
    INDEX 01 66:18:61
  TRACK 16 AUDIO
    TITLE "Mozart: Requiem in D minor K.626 Lacrimosa"
    PERFORMER "莫扎特:D小调安魂曲 K.626:垂泪之日"
    FLAGS DCP
    INDEX 01 70:01:61


CDImage2.cue

REM DATE 2013
REM DISCID D90F6710
REM COMMENT ExactAudioCopy v0.99pb5
TITLE "Ultimate Masters Sound CD2"
FILE "CDImage2.flac" WAVE
  TRACK 01 AUDIO
    TITLE "Grieg: Symphonic Dance Op.64 No.2"
    PERFORMER "格里格:第二号 交响舞曲 作品六十四"
    FLAGS DCP
    INDEX 01 00:00:00
  TRACK 02 AUDIO
    TITLE "Beethoven: Piano Sonata No.8 in C minor Op.13 'Pathetique'"
    PERFORMER "贝多芬:C小调第八号 钢琴奏鸣曲 '悲怆',作品十三 第三乐章"
    FLAGS DCP
    INDEX 01 05:09:00
  TRACK 03 AUDIO
    TITLE "Leopold Mozart: Trumpet Concerto in D (ed.Seiffert), II.Allegro moderato"
    PERFORMER "雷奥普:莫扎特D大调小号协奏曲 第二乐章"
    FLAGS DCP
    INDEX 01 09:23:00
  TRACK 04 AUDIO
    TITLE "Mendelssohn: Violin Concerto in E Minor Op.64, III.Allegretto non-troppo-Allegro molto vivace"
    PERFORMER "门德尔松:E小调小提琴协奏曲 第三乐章"
    FLAGS DCP
    INDEX 01 13:46:00
  TRACK 05 AUDIO
    TITLE "Beethoven: Symphony No.5 in C minor Op.67, III.Allegro(excerpt)"
    PERFORMER "贝多芬:C小调第五号交响曲 作品六十七 第三乐章(选段)"
    FLAGS DCP
    INDEX 01 20:12:00
  TRACK 06 AUDIO
    TITLE "Verdi: Messa da Requiem, II.Sequence(Dies irae)Rex Tremendae"
    PERFORMER "威尔第:安魂弥撒 第二乐章"
    FLAGS DCP
    INDEX 01 23:38:00
  TRACK 07 AUDIO
    TITLE "Mahler: Symphony No.9 in D, I.Andante comodo(excerpt)"
    PERFORMER "马勒:D大调第九号交响曲 第一乐章(选段)"
    FLAGS DCP
    INDEX 01 27:42:00
  TRACK 08 AUDIO
    TITLE "Delibes: Le Roi s’amuse - Incidental Music(Ballet Music), I.Gaillarde"
    PERFORMER "德里布:“国王取乐”第一乐章"
    FLAGS DCP
    INDEX 01 33:54:00
  TRACK 09 AUDIO
    TITLE "Schubert: Lieder Auf dem Wasser zu singen D.774"
    PERFORMER "舒伯特:艺术歌曲--在水上歌唱 D774"
    FLAGS DCP
    INDEX 01 37:59:00
  TRACK 10 AUDIO
    TITLE "Elgar: Serenade in E minor Op.20, I.Allegro piacevole"
    PERFORMER "埃尔加:E小调小夜曲 第一乐章"
    FLAGS DCP
    INDEX 01 41:22:00
  TRACK 11 AUDIO
    TITLE "Bach: Partita No.3 in E BW V 1006, I.Preludio"
    PERFORMER "巴赫:E大调无伴奏第三号小提琴组曲"
    FLAGS DCP
    INDEX 01 45:24:00
  TRACK 12 AUDIO
    TITLE "Richard Strauss: Ein Heldenleben Op.40 Thema der Siegewi Bheit"
    PERFORMER "理查施特劳斯:英雄的生涯 作品四十"
    FLAGS DCP
    INDEX 01 48:38:00
  TRACK 13 AUDIO
    TITLE "Berlioz: Les Troyens Trojan March (Act.I)"
    PERFORMER "柏辽兹:特洛伊人-木马进行曲(第一章)"
    FLAGS DCP
    INDEX 01 54:44:00
  TRACK 14 AUDIO
    TITLE "Rachmaninov: Rhapsody on a Theme of Paganini Variation, XVI:Allegretto"
    PERFORMER "拉赫马尼诺夫:帕格尼主题狂想曲 第十六变奏"
    FLAGS DCP
    INDEX 01 59:11:00
  TRACK 15 AUDIO
    TITLE "Rachmaninov: Rhapsody on a Theme of Paganini Variation, XVII"
    PERFORMER "拉赫马尼诺夫:帕格尼主题狂想曲 第十七变奏"
    FLAGS DCP
    INDEX 01 60:50:00
  TRACK 16 AUDIO
    TITLE "Rachmaninov: Rhapsody on a Theme of Paganini Variation, XVIII:Andante cantabile"
    PERFORMER "拉赫马尼诺夫:帕格尼主题狂想曲 第十八变奏"
    FLAGS DCP
    INDEX 01 62:43:00






回复

使用道具 举报

 楼主| 发表于 2017-8-27 21:43 | 显示全部楼层



[24bit数码母带音乐06] - 原声系列 [24-96, LP]

[24bit数码母带音乐06] - 原声系列
https://pan.baidu.com/share/link?shareid=2044726036&uk=3712792985#list/path=%2F
-----------------------------------------
- 电影OST:(汉斯金默作曲)Hans Zimmer - The Dark Knight Rises OST 蝙蝠侠前传3 黑暗骑士崛起 原声 (WaterTower Music.2012) 24-192
- 蓝调:(吕贝卡.弗蕾克演唱)
Roberta Flack - Killing Me Softly 1973 (Rhino Atlantic.2012) 24-192
- 试音碟:(综合曲风)
SoundVision & HDtracks Present - The Ultimate HiDef Music Download Experience 2011 Soundtrack 24-96
- 迷幻流行:(汤米乐队)
Tommy - The Who (Geffen Records.1996)2011 24-96
- 乡村:(多位歌手)
Where Art Thou - Various Artists Mercury Records (Mercury Records Audiophile Deluxe Edition.2011) 24-96
- 电影OST:(1987法国南特电影节最佳配音奖)
侯孝贤电影 - 恋恋风尘 电影原声带 FRSACD401 (1993)2003 24-88.2


24-96 实际上基本都是LP转轨。好的版本是厂商从保存的金属母盘转出来的,其它的是实体LP黑胶转的。对比SACD,LP的音乐性是一种超级存在。



回复

使用道具 举报

 楼主| 发表于 2017-8-28 06:03 | 显示全部楼层
本帖最后由 jimguo 于 2017-8-28 22:52 编辑


绝对的声音 老虎鱼-女声民谣 [17set - WAV, SACD]


人声发烧 绝对的声音 1996-2015 The Absolute Sound [SACD-R-ISO / WAV]
https://pan.baidu.com/share/link?shareid=1992243102&uk=1392660063#list/path=%2F

(上面有几个是APE的)
群星 - 绝对的声音 1996_2012 - WAV
http://pan.baidu.com/wap/link?uk=3775224291&shareid=3702709117&third=0




回复

使用道具 举报

发表于 2017-9-2 14:47 | 显示全部楼层
Thanks for your sharing.
回复

使用道具 举报

发表于 2017-9-21 15:55 | 显示全部楼层
才发现这个帖子,收藏。
回复

使用道具 举报

您需要登录后才可以回帖 登录 | 注册

本版积分规则

Archiver|手机版|《中华人民共和国增值电信业务经营许可证》粤B2-20120704|耳机大家坛-耳机网 ( 粤icp备09046054号-6 )

粤公网安备 44030602000598号

GMT+8, 2017-9-25 14:19

Powered by Discuz! X3.2

© 2001-2013 Comsenz Inc.

快速回复 返回顶部 返回列表