找回密码
 注册
查看: 141|回复: 2

求大神帮看看EAC抓轨生成的CUE咋是这样

[复制链接]
发表于 2018-10-29 14:44 | 显示全部楼层 |阅读模式
不知道去哪里问EAC的问题,只好来这里求教大神了。以下是CUE信息
REM DISCID 1411D112

REM COMMENT "ExactAudioCopy v1.3"
PERFORMER "凯丽金"
TITLE "萨克斯"
REM COMPOSER ""
FILE "凯丽金 - 萨克斯.wav" WAVE
TRACK 01 AUDIO
TITLE "音轨01"
PERFORMER "凯丽金"
REM COMPOSER ""
FLAGS DCP
INDEX 01 00:00:00
TRACK 02 AUDIO
TITLE "音轨02"
PERFORMER "凯丽金"
REM COMPOSER ""
FLAGS DCP
INDEX 01 05:32:50
TRACK 03 AUDIO
TITLE "音轨03"
PERFORMER "凯丽金"
REM COMPOSER ""
FLAGS DCP
INDEX 00 05:32:50
INDEX 01 10:16:26
TRACK 04 AUDIO
TITLE "音轨04"
PERFORMER "凯丽金"
REM COMPOSER ""
FLAGS DCP
INDEX 00 05:32:50
INDEX 01 14:42:06
TRACK 05 AUDIO
TITLE "音轨05"
PERFORMER "凯丽金"
REM COMPOSER ""
FLAGS DCP
INDEX 00 05:32:50
INDEX 01 18:05:51
TRACK 06 AUDIO
TITLE "音轨06"
PERFORMER "凯丽金"
REM COMPOSER ""
FLAGS DCP
INDEX 00 05:32:50
INDEX 01 21:38:42
TRACK 07 AUDIO
TITLE "音轨07"
PERFORMER "凯丽金"
REM COMPOSER ""
FLAGS DCP
INDEX 00 05:32:50
INDEX 01 25:43:63
TRACK 08 AUDIO
TITLE "音轨08"
PERFORMER "凯丽金"
REM COMPOSER ""
FLAGS DCP
INDEX 00 05:32:50
INDEX 01 32:00:42
TRACK 09 AUDIO
TITLE "音轨09"
PERFORMER "凯丽金"
REM COMPOSER ""
FLAGS DCP
INDEX 00 05:32:50
INDEX 01 35:40:54
TRACK 10 AUDIO
TITLE "音轨10"
PERFORMER "凯丽金"
REM COMPOSER ""
FLAGS DCP
INDEX 00 05:32:50
INDEX 01 39:57:31
TRACK 11 AUDIO
TITLE "音轨11"
PERFORMER "凯丽金"
REM COMPOSER ""
FLAGS DCP
INDEX 00 05:32:50
INDEX 01 44:18:24
TRACK 12 AUDIO
TITLE "音轨12"
PERFORMER "凯丽金"
REM COMPOSER ""
FLAGS DCP
INDEX 00 05:32:50
INDEX 01 49:27:01
TRACK 13 AUDIO
TITLE "音轨13"
PERFORMER "凯丽金"
REM COMPOSER ""
FLAGS DCP
INDEX 00 05:32:50
INDEX 01 53:11:47
TRACK 14 AUDIO
TITLE "音轨14"
PERFORMER "凯丽金"
REM COMPOSER ""
FLAGS DCP
INDEX 00 05:32:50
INDEX 01 57:44:20
TRACK 15 AUDIO
TITLE "音轨15"
PERFORMER "凯丽金"
REM COMPOSER ""
FLAGS DCP
INDEX 00 05:32:50
INDEX 01 61:04:38
TRACK 16 AUDIO
TITLE "音轨16"
PERFORMER "凯丽金"
REM COMPOSER ""
FLAGS DCP
INDEX 00 05:32:50
INDEX 01 64:36:64
TRACK 17 AUDIO
TITLE "音轨17"
PERFORMER "凯丽金"
REM COMPOSER ""
FLAGS DCP
INDEX 00 05:32:50
INDEX 01 67:59:35
TRACK 18 AUDIO
TITLE "音轨18"
PERFORMER "凯丽金"
REM COMPOSER ""
FLAGS DCP
INDEX 00 05:32:50
INDEX 01 71:43:03
我帮我爸翻张碟,很久没抓轨翻过碟了,结果抓轨生成的CUE是这样的。从第三首开始,就出现了个上首结束的时间,之后每首结束的时间,都是第二首开始的时间,千千静听能正常识别,但是刻录软件不认。换了几张碟用EAC抓轨都是这样,刻录机还是以前那台,EAC的设置也没动过。后来我翻出以前抓轨正常刻录的文件来对比,发现以前根本就没有INDEX 00 05:32:50,虽然可以手动删除这个来刻录,但还是想求教大神这到底是什么问题。以下是以前可以正常刻录时候相同碟片的抓轨。
REM DISCID 1411D112
REM COMMENT "ExactAudioCopy v1.3"
PERFORMER "凯丽金"
TITLE "萨克斯"
REM COMPOSER ""
FILE "CDImage.wav" WAVE
TRACK 01 AUDIO
TITLE "音轨01"
PERFORMER "凯丽金"
REM COMPOSER ""
FLAGS DCP
INDEX 01 00:00:00
TRACK 02 AUDIO
TITLE "音轨02"
PERFORMER "凯丽金"
REM COMPOSER ""
FLAGS DCP
INDEX 01 05:32:50
TRACK 03 AUDIO
TITLE "音轨03"
PERFORMER "凯丽金"
REM COMPOSER ""
FLAGS DCP
INDEX 01 10:16:26
TRACK 04 AUDIO
TITLE "音轨04"
PERFORMER "凯丽金"
REM COMPOSER ""
FLAGS DCP
INDEX 01 14:42:06
TRACK 05 AUDIO
TITLE "音轨05"
PERFORMER "凯丽金"
REM COMPOSER ""
FLAGS DCP
INDEX 01 18:05:51
TRACK 06 AUDIO
TITLE "音轨06"
PERFORMER "凯丽金"
REM COMPOSER ""
FLAGS DCP
INDEX 01 21:38:42
TRACK 07 AUDIO
TITLE "音轨07"
PERFORMER "凯丽金"
REM COMPOSER ""
FLAGS DCP
INDEX 01 25:43:63
TRACK 08 AUDIO
TITLE "音轨08"
PERFORMER "凯丽金"
REM COMPOSER ""
FLAGS DCP
INDEX 01 32:00:42
TRACK 09 AUDIO
TITLE "音轨09"
PERFORMER "凯丽金"
REM COMPOSER ""
FLAGS DCP
INDEX 01 35:40:54
TRACK 10 AUDIO
TITLE "音轨10"
PERFORMER "凯丽金"
REM COMPOSER ""
FLAGS DCP
INDEX 01 39:57:31
TRACK 11 AUDIO
TITLE "音轨11"
PERFORMER "凯丽金"
REM COMPOSER ""
FLAGS DCP
INDEX 01 44:18:24
TRACK 12 AUDIO
TITLE "音轨12"
PERFORMER "凯丽金"
REM COMPOSER ""
FLAGS DCP
INDEX 01 49:27:01
TRACK 13 AUDIO
TITLE "音轨13"
PERFORMER "凯丽金"
REM COMPOSER ""
FLAGS DCP
INDEX 01 53:11:47
TRACK 14 AUDIO
TITLE "音轨14"
PERFORMER "凯丽金"
REM COMPOSER ""
FLAGS DCP
INDEX 01 57:44:20
TRACK 15 AUDIO
TITLE "音轨15"
PERFORMER "凯丽金"
REM COMPOSER ""
FLAGS DCP
INDEX 01 61:04:38
TRACK 16 AUDIO
TITLE "音轨16"
PERFORMER "凯丽金"
REM COMPOSER ""
FLAGS DCP
INDEX 01 64:36:64
TRACK 17 AUDIO
TITLE "音轨17"
PERFORMER "凯丽金"
REM COMPOSER ""
FLAGS DCP
INDEX 01 67:59:35
TRACK 18 AUDIO
TITLE "音轨18"
PERFORMER "凯丽金"
REM COMPOSER ""
FLAGS DCP
INDEX 01 71:43:03
发表于 2018-10-30 16:53 | 显示全部楼层
找过软件从装~
回复

使用道具 举报

 楼主| 发表于 2018-10-30 17:06 | 显示全部楼层

重装过几次咯,还去找了几个不同网站来下的,还是这个样子。。。
回复

使用道具 举报

您需要登录后才可以回帖 登录 | 注册

本版积分规则

Archiver|手机版|《中华人民共和国增值电信业务经营许可证》粤B2-20120704|耳机大家坛-耳机网 ( 粤icp备09046054号-6 )

粤公网安备 44030602000598号

GMT+8, 2018-11-21 00:35

Powered by Discuz! X3.2

© 2001-2013 Comsenz Inc.

快速回复 返回顶部 返回列表