找回密码
 注册
查看: 665|回复: 9

[轻音乐] 音乐的十字路口-----高山流水乐队《Crossing》

[复制链接]
发表于 2019-3-18 16:22 | 显示全部楼层 |阅读模式
高山流水乐队(后来的五行乐队)是一个跨界的乐队,也许是中国第一个世界音乐实验团队,这是乌仁娜初次献声,开嗓的那一刻余音缭绕,真的是天籁之音
QQ图片20190318160457.jpg
在音乐的CROSSING,蒙古乐,爵士乐、新世纪、人声表演、打击乐,让你眼花缭乱,但都以蒙古乐为主线,也许有人会怀疑这样的组合会不会和谐,不过想想几百年前蒙古人世界各地征讨伐战,留在各地蒙古人多多少少也会给当地带来些的音乐元素,所以还是要听一听

蒙古的民歌分为长歌与短歌,长与短与歌曲长度无关。短歌通常节奏固定,长歌则是自由拍,充满即兴色彩
编曲是来自德国的RobertZollitsch,罗伯特,老锣,他在柏林与慕尼黑研究音乐理论,擅长巴伐利亚四十二弦筝的弹奏,  
这张专辑的音乐是兼容传统曲调与原创新作,在乐器的编排上则跨越国界地使用了德国南部巴伐利亚的筝、印度的打击乐器及蒙古的马头琴。


QQ图片20190318160715.jpg
1:Crossing
2: Jaran Hailaas
3: Desert Dream
4:Scharlig
5ragon Wings
6:To Oliver
7:Blue Phoenix
8:Grassland

用来录制的这张唱片有乌仁娜的亲笔签名
抓轨器材如下:
音源:CEC TL1 CD转盘
电源处理:采用国内顶级的马斯特大功率电池版线性再生电源
专业数字便携式录音机:瑞士NAGRA-LB 支持24bit/192KHz采样、实时音频编码、多通道输入输出等,具有业内最高的音频指标
提取码:b8km
(仅供交流欣赏,禁止作为商业用途,此文件半个月内删除)
QQ图片20190318160710.jpg
附:
罗伯特的“十字路口”:
我于1993年秋天前往中国,学习了一年的中国传统音乐--古筝古琴的学习。此外,我还计划与传统音乐领域的中国音乐家一起建立一支乐队,并演奏一种新的、共同的音乐。一开始,我被赋予了最高荣誉。在这个如此陌生的国家很难找到有兴趣的音乐家。此外,与欧洲音乐的距离远比人们普遍认为的要远得多。但后来我认识了王伟,他是个表演者,并通过他认识了沉默的吴伟。我们的第一次会议对每个人来说都是一次难忘的经历。中国和欧洲旋律、和声和节奏的狂野混合。但你知道吗?我们互相理解。
稍晚些时候,我遇到了蒙古歌唱家乌仁娜·查哈-图奇,参加了一场蒙古婚宴,并在巴伐利亚筝上伴奏着他们的蒙古歌曲。后来,在上海排练的时候,她突然开始了她的一次奇妙的即兴表演,但她从来没有和合唱团一起工作过,也从来没有在舞台上表演过,所以我们扩大了四重奏-扬琴曹晓红和吉他手迪诺·多尼斯(Dino Dornes)。1994年,我的工作花了两年时间,然而,它的强度与当时一样。如果我们玩得不好,我们就只能玩了。
我是说,这就是我想说的。蒙古S-Tuhar-Tugchi,一种蒙古族音乐。突然发现,在此之前,我们所有人的共同努力就是与本季度的乌仁娜 查哈-图奇(Urna Charhar-Tugchi)一起工作,特别是在这个季度里,我们所有人的共同努力都是特别的,对我们所有人来说,都是一项特别的工作。现在,两年过去了,保持联系是很容易的。当我们相遇的时候,我们所演奏的音乐的强度和强度是一样的:这是我们的音乐。中国,蒙古和欧洲,在任何地方都是陌生的,与任何人都是平等的。这就是我们要做的Cu的一部分。一九九七年一月


玩得不好,就只能玩了……………………

发表于 2019-3-18 20:37 | 显示全部楼层
听听是不是楼主说的那么厉害
回复

使用道具 举报

发表于 2019-3-30 23:50 | 显示全部楼层
谢谢,已经下载,楼主能否分享一下CUE文件
回复

使用道具 举报

发表于 2019-3-31 00:44 | 显示全部楼层
没有CUE文件不方便,我参照楼主帖子内容用eac制作了个

PERFORMER "高山流水乐队"
TITLE "Crossing"
FILE "高山流水.WAV" WAVE
  TRACK 01 AUDIO
    TITLE "Crossing"
    INDEX 01 00:00:00
  TRACK 02 AUDIO
    TITLE "Jaran Hailaas"
    INDEX 01 08:21:01
  TRACK 03 AUDIO
    TITLE "Desert Dream"
    INDEX 01 15:34:06
  TRACK 04 AUDIO
    TITLE "Scharlig"
    INDEX 01 21:45:61
  TRACK 05 AUDIO
    TITLE "dragon wings"
    INDEX 01 29:29:37
  TRACK 06 AUDIO
    TITLE "To Oliver"
    INDEX 01 32:15:67
  TRACK 07 AUDIO
    TITLE "Blue Phoenix"
    INDEX 01 41:57:69
  TRACK 08 AUDIO
    TITLE "Grassland"
    INDEX 01 43:47:51
回复

使用道具 举报

 楼主| 发表于 2019-4-2 15:38 | 显示全部楼层
多谢,因为我不是用电脑抓轨,制作CUE不太方便
回复

使用道具 举报

发表于 2019-4-3 09:17 | 显示全部楼层
谢谢分享
回复

使用道具 举报

发表于 2019-4-3 09:55 | 显示全部楼层
谢谢分享
回复

使用道具 举报

发表于 2019-4-8 10:50 | 显示全部楼层
浣辛 发表于 2019-3-31 00:44
没有CUE文件不方便,我参照楼主帖子内容用eac制作了个

PERFORMER "高山流水乐队"

感谢有爱心懂音乐的人,
回复

使用道具 举报

发表于 2019-7-7 14:27 | 显示全部楼层
过期了·
回复

使用道具 举报

 楼主| 发表于 2019-7-9 21:06 | 显示全部楼层
对,7天有效期
回复

使用道具 举报

您需要登录后才可以回帖 登录 | 注册

本版积分规则

Archiver|手机版|《中华人民共和国增值电信业务经营许可证》粤B2-20120704|耳机大家坛-耳机网 ( 粤icp备09046054号-6 )

粤公网安备 44030602000598号

GMT+8, 2019-7-19 12:40

Powered by Discuz! X3.2

© 2001-2013 Comsenz Inc.

快速回复 返回顶部 返回列表